osu file format v14

[General]
AudioFilename: NBGirls.mp3
AudioLeadIn: 1500
PreviewTime: 57264
Countdown: 0
SampleSet: Normal
StackLeniency: 0.7
Mode: 1
LetterboxInBreaks: 0
WidescreenStoryboard: 0

[Editor]
DistanceSpacing: 1
BeatDivisor: 2
GridSize: 32
TimelineZoom: 1.6

[Metadata]
Title:No brand girls(TV Size)
TitleUnicode:No brand girls(TVサイズ)
Artist:u's
ArtistUnicode:μ's
Creator:JUDYDANNY
Version:Muzukashii
Source:Love Live! School idol project
Tags:ラブライブ! muse μ's START:DASH!! 畑 亞貴 Hata Aki 河田貴央 Kawada Takaou 高坂 穂乃果 Kousaka Honoka 新田恵海 Nitta Emi 南 ことり Minami Kotori 内田彩 Uchida Aya 園田 海未 Sonoda Umi 三森すずこ Mimori Suzuko 星空 凛 Hoshizora Rin 飯田里穂 Iida Riho 小泉 花陽 Koizumi Hanayo 久保ユリカ Kubo Yurika 西木野 真姫 Nishikino Maki Pile 矢澤 にこ Yazawa Niko 徳井青空 Tokui Sora 絢瀬 絵里 Ayase Eri 南條愛乃 Nanjo Yoshino 東條 希 Toujo Nozomi 楠田亜衣奈 Kusuda Aina
BeatmapID:241327
BeatmapSetID:88572

[Difficulty]
HPDrainRate:5
CircleSize:5
OverallDifficulty:5
ApproachRate:5
SliderMultiplier:1.4
SliderTickRate:1

[Events]
//Background and Video events
0,0,"bg.jpg",0,120
//Break Periods
//Storyboard Layer 0 (Background)
//Storyboard Layer 1 (Fail)
//Storyboard Layer 2 (Pass)
//Storyboard Layer 3 (Foreground)
//Storyboard Sound Samples

[TimingPoints]
1300,304.568527918782,4,1,0,90,1,0
57314,304.568527918782,4,1,0,90,1,1
73782,304.568527918782,4,1,0,90,1,1
74391,304.568527918782,4,1,0,90,1,0
79273,304.568527918782,4,1,0,90,1,0

[Colours]
Combo1 : 0,0,0
Combo2 : 255,0,0

[HitObjects]
208,240,3431,5,2,0:0:0:0:
208,240,3736,1,0,0:0:0:0:
288,320,5868,1,2,0:0:0:0:
288,320,6173,5,4,0:0:0:0:
264,232,6477,1,0,0:0:0:0:
264,232,6782,1,0,0:0:0:0:
264,232,7086,1,0,0:0:0:0:
264,232,7391,1,0,0:0:0:0:
264,232,7695,1,0,0:0:0:0:
264,232,8000,1,0,0:0:0:0:
264,232,8305,1,2,0:0:0:0:
308,324,8609,1,4,0:0:0:0:
308,324,8914,1,0,0:0:0:0:
336,336,9066,1,2,0:0:0:0:
308,324,9218,1,0,0:0:0:0:
308,324,9371,1,2,0:0:0:0:
308,324,9523,1,0,0:0:0:0:
308,324,9827,1,2,0:0:0:0:
336,336,10132,1,2,0:0:0:0:
308,324,10284,1,0,0:0:0:0:
336,336,10437,1,2,0:0:0:0:
336,336,10741,1,6,0:0:0:0:
308,324,11046,5,0,0:0:0:0:
308,324,11350,1,2,0:0:0:0:
308,324,11503,1,0,0:0:0:0:
296,284,11807,1,0,0:0:0:0:
244,236,11959,1,2,0:0:0:0:
244,236,12112,1,0,0:0:0:0:
308,324,12416,1,0,0:0:0:0:
308,324,12569,1,2,0:0:0:0:
308,324,12721,1,0,0:0:0:0:
308,324,13025,1,0,0:0:0:0:
308,324,13178,1,2,0:0:0:0:
344,324,13482,1,0,0:0:0:0:
308,324,13787,1,2,0:0:0:0:
308,324,13939,1,0,0:0:0:0:
308,324,14244,1,0,0:0:0:0:
308,324,14396,1,2,0:0:0:0:
308,324,14548,1,0,0:0:0:0:
308,324,14853,1,0,0:0:0:0:
308,324,15005,1,2,0:0:0:0:
308,324,15157,1,0,0:0:0:0:
308,324,15462,1,0,0:0:0:0:
308,324,15614,1,2,0:0:0:0:
308,324,15919,1,4,0:0:0:0:
308,324,16223,1,2,0:0:0:0:
308,324,16376,1,0,0:0:0:0:
308,324,16680,1,0,0:0:0:0:
308,324,16832,1,2,0:0:0:0:
308,324,16985,1,0,0:0:0:0:
280,300,17289,1,0,0:0:0:0:
280,300,17442,1,2,0:0:0:0:
280,300,17594,1,0,0:0:0:0:
280,300,17898,1,0,0:0:0:0:
280,300,18051,1,2,0:0:0:0:
308,324,18203,1,2,0:0:0:0:
308,324,18355,1,0,0:0:0:0:
280,300,18660,1,2,0:0:0:0:
280,300,18812,1,0,0:0:0:0:
308,324,19117,1,0,0:0:0:0:
308,324,19269,1,2,0:0:0:0:
312,284,19421,1,0,0:0:0:0:
256,160,19726,1,0,0:0:0:0:
312,284,19878,1,6,0:0:0:0:
312,284,20183,1,6,0:0:0:0:
312,284,20487,1,6,0:0:0:0:
312,284,20792,5,0,0:0:0:0:
248,260,21096,1,0,0:0:0:0:
248,260,21401,1,0,0:0:0:0:
248,260,21706,1,0,0:0:0:0:
248,260,22010,1,0,0:0:0:0:
248,260,22315,1,0,0:0:0:0:
248,260,22619,1,0,0:0:0:0:
248,260,22924,1,0,0:0:0:0:
248,260,23076,1,2,0:0:0:0:
248,260,23228,1,0,0:0:0:0:
292,312,23533,1,0,0:0:0:0:
292,312,23838,1,0,0:0:0:0:
292,312,24142,1,0,0:0:0:0:
292,312,24447,1,0,0:0:0:0:
292,312,24751,1,0,0:0:0:0:
292,312,25056,1,2,0:0:0:0:
292,312,25665,5,2,0:0:0:0:
256,256,25817,1,0,0:0:0:0:
192,132,25970,1,2,0:0:0:0:
192,132,26274,1,2,0:0:0:0:
292,240,26426,1,0,0:0:0:0:
292,240,26731,1,2,0:0:0:0:
224,128,27036,1,0,0:0:0:0:
292,240,27188,1,2,0:0:0:0:
292,240,27492,1,2,0:0:0:0:
256,192,27645,1,2,0:0:0:0:
400,248,27949,1,0,0:0:0:0:
340,328,28102,1,0,0:0:0:0:
320,256,28254,1,0,0:0:0:0:
332,292,28406,1,2,0:0:0:0:
340,328,28711,1,2,0:0:0:0:
340,328,29015,1,0,0:0:0:0:
340,328,29168,1,2,0:0:0:0:
340,328,29472,1,0,0:0:0:0:
340,328,29624,1,2,0:0:0:0:
332,292,29929,1,4,0:0:0:0:
340,328,30081,1,4,0:0:0:0:
340,328,30538,5,0,0:0:0:0:
232,264,30843,1,2,0:0:0:0:
232,264,31147,1,0,0:0:0:0:
224,192,31300,1,0,0:0:0:0:
232,264,31452,1,2,0:0:0:0:
144,56,31604,1,0,0:0:0:0:
232,264,31909,1,0,0:0:0:0:
232,264,32061,1,2,0:0:0:0:
232,264,32365,1,0,0:0:0:0:
232,264,32670,1,2,0:0:0:0:
232,264,32822,1,0,0:0:0:0:
144,56,32975,1,2,0:0:0:0:
232,264,33279,1,2,0:0:0:0:
232,264,33584,1,0,0:0:0:0:
224,224,33736,1,0,0:0:0:0:
232,264,33888,1,2,0:0:0:0:
232,264,34041,1,0,0:0:0:0:
232,264,34345,1,0,0:0:0:0:
232,264,34497,1,2,0:0:0:0:
232,264,34802,1,2,0:0:0:0:
232,264,35107,1,2,0:0:0:0:
232,264,35259,1,0,0:0:0:0:
208,176,35411,1,2,0:0:0:0:
256,344,35716,1,0,0:0:0:0:
256,344,36020,1,2,0:0:0:0:
152,136,36325,1,2,0:0:0:0:
328,324,36477,1,0,0:0:0:0:
160,92,36629,1,2,0:0:0:0:
328,324,36934,1,0,0:0:0:0:
328,324,37239,1,2,0:0:0:0:
336,364,37848,1,0,0:0:0:0:
336,364,38152,1,2,0:0:0:0:
336,364,38457,1,2,0:0:0:0:
336,364,38761,1,0,0:0:0:0:
336,364,38914,1,2,0:0:0:0:
304,344,39218,1,0,0:0:0:0:
304,344,39371,1,6,0:0:0:0:
304,344,39675,1,6,0:0:0:0:
304,344,39980,1,6,0:0:0:0:
336,364,40284,1,0,0:0:0:0:
304,344,40589,1,2,0:0:0:0:
304,344,40741,1,0,0:0:0:0:
304,344,41046,1,0,0:0:0:0:
304,344,41350,1,2,0:0:0:0:
304,344,41655,1,0,0:0:0:0:
304,344,41807,1,2,0:0:0:0:
268,308,41959,1,0,0:0:0:0:
304,344,42264,1,0,0:0:0:0:
304,344,42416,1,2,0:0:0:0:
268,308,42721,1,0,0:0:0:0:
144,164,43025,1,2,0:0:0:0:
304,344,43178,1,0,0:0:0:0:
304,344,43482,1,0,0:0:0:0:
304,344,43787,1,2,0:0:0:0:
304,344,44091,1,0,0:0:0:0:
304,344,44244,1,2,0:0:0:0:
288,288,44548,1,2,0:0:0:0:
308,312,44701,1,0,0:0:0:0:
256,224,44853,1,2,0:0:0:0:
332,316,45157,1,0,0:0:0:0:
304,344,45462,1,2,0:0:0:0:
304,344,45614,1,0,0:0:0:0:
308,312,45919,1,0,0:0:0:0:
308,312,46223,1,2,0:0:0:0:
344,380,46528,1,0,0:0:0:0:
152,64,46680,1,2,0:0:0:0:
304,344,46832,1,0,0:0:0:0:
152,64,47137,1,2,0:0:0:0:
152,64,47289,1,2,0:0:0:0:
304,344,47442,1,0,0:0:0:0:
152,64,47594,1,0,0:0:0:0:
160,32,47898,1,2,0:0:0:0:
304,344,48203,1,2,0:0:0:0:
256,224,48508,1,0,0:0:0:0:
304,304,48660,1,0,0:0:0:0:
304,304,48964,1,0,0:0:0:0:
304,304,49117,1,0,0:0:0:0:
288,256,49421,1,2,0:0:0:0:
224,128,49574,1,2,0:0:0:0:
304,304,50030,1,0,0:0:0:0:
256,192,50335,1,2,0:0:0:0:
304,304,50640,1,2,0:0:0:0:
224,96,50944,1,0,0:0:0:0:
288,332,51096,1,0,0:0:0:0:
288,332,51401,1,0,0:0:0:0:
288,332,51553,1,0,0:0:0:0:
304,304,51858,1,2,0:0:0:0:
256,160,52010,1,2,0:0:0:0:
164,64,52467,1,0,0:0:0:0:
224,192,52772,1,2,0:0:0:0:
312,352,53076,1,2,0:0:0:0:
312,352,53381,1,0,0:0:0:0:
312,352,53533,1,0,0:0:0:0:
312,352,53838,1,0,0:0:0:0:
312,352,53990,1,0,0:0:0:0:
312,352,54294,1,2,0:0:0:0:
288,288,54447,1,2,0:0:0:0:
352,340,54904,1,2,0:0:0:0:
352,340,55208,1,2,0:0:0:0:
248,304,55513,1,2,0:0:0:0:
248,304,55665,1,2,0:0:0:0:
248,304,55817,1,2,0:0:0:0:
248,304,55970,1,4,0:0:0:0:
284,296,57314,1,4,0:0:0:0:
272,324,57618,1,4,0:0:0:0:
272,324,57923,1,4,0:0:0:0:
284,296,58227,1,0,0:0:0:0:
320,296,58379,1,0,0:0:0:0:
284,296,58532,1,2,0:0:0:0:
284,296,58836,1,2,0:0:0:0:
272,324,58989,1,0,0:0:0:0:
256,228,59293,1,0,0:0:0:0:
272,324,59445,1,2,0:0:0:0:
284,296,59750,1,6,0:0:0:0:
284,296,60055,1,6,0:0:0:0:
328,320,60359,1,6,0:0:0:0:
328,320,60664,1,2,0:0:0:0:
328,320,60816,1,0,0:0:0:0:
276,248,60968,1,2,0:0:0:0:
276,248,61273,1,2,0:0:0:0:
276,248,61425,1,0,0:0:0:0:
228,144,61730,1,0,0:0:0:0:
228,144,61882,1,2,0:0:0:0:
312,288,62187,1,2,0:0:0:0:
312,288,62491,1,2,0:0:0:0:
312,288,62796,1,0,0:0:0:0:
312,288,62948,1,0,0:0:0:0:
312,288,63100,1,2,0:0:0:0:
312,344,63405,1,0,0:0:0:0:
288,308,63709,1,2,0:0:0:0:
288,308,63862,1,0,0:0:0:0:
312,344,64166,1,0,0:0:0:0:
312,344,64319,1,2,0:0:0:0:
312,344,64623,5,0,0:0:0:0:
260,328,64928,1,2,0:0:0:0:
260,328,65232,1,0,0:0:0:0:
312,344,65385,1,0,0:0:0:0:
312,344,65537,1,2,0:0:0:0:
312,344,65841,1,2,0:0:0:0:
328,280,65994,1,0,0:0:0:0:
312,344,66146,1,2,0:0:0:0:
240,264,66298,1,0,0:0:0:0:
312,344,66451,1,2,0:0:0:0:
240,264,66755,1,2,0:0:0:0:
204,112,67060,1,4,0:0:0:0:
204,112,67364,1,4,0:0:0:0:
204,112,67669,1,4,0:0:0:0:
308,304,67973,1,0,0:0:0:0:
204,112,68126,1,0,0:0:0:0:
308,304,68278,1,2,0:0:0:0:
308,304,68583,1,2,0:0:0:0:
308,304,68735,1,0,0:0:0:0:
308,304,69039,1,0,0:0:0:0:
308,304,69192,1,2,0:0:0:0:
308,304,69496,1,6,0:0:0:0:
308,304,69801,1,6,0:0:0:0:
308,304,70105,1,6,0:0:0:0:
308,304,70410,1,2,0:0:0:0:
308,304,70562,1,0,0:0:0:0:
308,304,70715,1,2,0:0:0:0:
308,304,71019,1,2,0:0:0:0:
308,304,71171,1,0,0:0:0:0:
308,304,71476,1,0,0:0:0:0:
308,304,71628,1,2,0:0:0:0:
308,304,71933,1,6,0:0:0:0:
296,344,72542,1,2,0:0:0:0:
320,332,72846,1,0,0:0:0:0:
308,304,73151,1,2,0:0:0:0:
296,344,73456,1,2,0:0:0:0:
296,344,73782,1,2,0:0:0:0:
308,304,73934,1,0,0:0:0:0:
260,336,74086,1,2,0:0:0:0:
260,336,74238,1,0,0:0:0:0:
308,304,74543,1,0,0:0:0:0:
308,304,74695,1,2,0:0:0:0:
344,348,75000,1,0,0:0:0:0:
284,164,75152,1,0,0:0:0:0:
344,348,75304,1,2,0:0:0:0:
308,304,75609,1,0,0:0:0:0:
308,304,75913,1,2,0:0:0:0:
276,264,76218,1,0,0:0:0:0:
308,304,76370,1,0,0:0:0:0:
344,348,76522,1,2,0:0:0:0:
344,348,76827,1,4,0:0:0:0:
344,348,77132,1,0,0:0:0:0:
344,348,77284,1,0,0:0:0:0:
344,348,77436,1,0,0:0:0:0:
344,348,77588,1,0,0:0:0:0:
344,348,77741,1,0,0:0:0:0:
344,348,78045,1,6,0:0:0:0:
344,348,79273,1,0,0:0:0:0:
156,220,79577,1,0,0:0:0:0:
156,220,79882,1,0,0:0:0:0:
292,236,80034,1,0,0:0:0:0:
156,220,80186,1,0,0:0:0:0:
156,220,80491,1,0,0:0:0:0:
292,236,80643,1,0,0:0:0:0:
156,220,80795,1,0,0:0:0:0:
264,264,81100,1,0,0:0:0:0:
264,264,81404,1,6,0:0:0:0:
264,264,81709,1,4,0:0:0:0:
224,224,82014,1,0,0:0:0:0:
160,192,82166,1,0,0:0:0:0:
240,228,82318,1,0,0:0:0:0:
240,228,82623,5,2,0:0:0:0:
224,160,82775,1,0,0:0:0:0:
240,228,83080,1,2,0:0:0:0:
240,228,83384,1,0,0:0:0:0:
240,228,83536,1,2,0:0:0:0:
328,336,83841,1,6,0:0:0:0:
328,336,84146,5,0,0:0:0:0:
328,336,84450,1,2,0:0:0:0:
328,336,84602,1,0,0:0:0:0:
296,304,84907,1,0,0:0:0:0:
296,304,85059,1,2,0:0:0:0:
296,304,85212,1,0,0:0:0:0:
328,336,85516,1,0,0:0:0:0:
328,336,85668,1,2,0:0:0:0:
328,336,85821,1,0,0:0:0:0:
328,336,86125,1,0,0:0:0:0:
296,304,86278,1,2,0:0:0:0:
296,304,86582,1,0,0:0:0:0:
348,292,86887,1,2,0:0:0:0:
296,304,87039,1,0,0:0:0:0:
296,304,87344,1,0,0:0:0:0:
296,304,87496,1,2,0:0:0:0:
296,304,87648,1,0,0:0:0:0:
296,304,87953,1,0,0:0:0:0:
312,356,88105,1,2,0:0:0:0:
312,356,88257,1,0,0:0:0:0:
296,304,88562,1,0,0:0:0:0:
296,304,88714,1,2,0:0:0:0:
296,304,89019,1,4,0:0:0:0:
188,160,89323,1,2,0:0:0:0:
188,160,89476,1,0,0:0:0:0:
296,304,89780,1,0,0:0:0:0:
296,304,89932,1,2,0:0:0:0:
296,304,90085,1,0,0:0:0:0:
316,328,90389,1,0,0:0:0:0:
316,328,90542,1,2,0:0:0:0:
316,328,90694,1,0,0:0:0:0:
296,304,90998,1,0,0:0:0:0:
296,304,91151,1,2,0:0:0:0:
256,256,91303,1,2,0:0:0:0:
344,352,91455,1,0,0:0:0:0:
344,352,91760,1,2,0:0:0:0:
344,352,91912,1,0,0:0:0:0:
316,328,92217,1,0,0:0:0:0:
344,352,92369,1,2,0:0:0:0:
296,304,92521,1,0,0:0:0:0:
296,304,92826,1,0,0:0:0:0:
316,328,92978,1,2,0:0:0:0:
344,352,93130,1,0,0:0:0:0:
320,288,93283,1,2,0:0:0:0:
316,328,93587,1,6,0:0:0:0:
316,328,93892,1,4,0:0:0:0:
